Jump to content
Sign in to follow this  
ReXik

Самый большой архив VOD'ов по Dota Allstars [v1lat, Web-DL, 720p] [RUS]

Recommended Posts

Самый большой архив VOD'ов по Dota Allstars от v1lat'a

VOD-p.jpgГод выпуска: 2011

Автор видео: v1lat + Prodota.ru

Продолжительность: 120+ часов

Субтитры: нет

Язык озвучки: русский

Качество: Web-DL, 720p

Комментатор: Виталий v1lat Волочай

Формат: FLV

Описание: Самый большой архив матчей, трансляций и стримов по Доте. Практически все VOD'ы, которые у меня получилось собрать с разных компьютеров и так далее за 2011 год.

40 гигов доты, более 120 часов веселых матчей от Вилата

Все игры Intel Challenge SuperCup 7 и 8 сезонов, очень много матчей с лиги Farm4Fame 3, китайские игры, скайп-шоу, комментарии с разными людьми (3 матча v1lat+pgg) и много-много других игр.

Format : Flash Video

Overall bit rate : 1 422 Kbps

Writing application : Lavf52.88.0

Video

Format : AVC

Format/Info : Advanced Video Codec

Bit rate : 1 260 Kbps

Width : 1 280 pixels

Height : 720 pixels

Display aspect ratio : 16:9

Frame rate : 1 000.000 fps

Bits/(Pixel*Frame) : 0.001

Stream size : 588 MiB (89%)

Audio

Format : MPEG Audio

Format version : Version 1

Format profile : Layer 3

Mode : Joint stereo

Format_Settings_ModeExtension : MS Stereo

Bit rate mode : Constant

Bit rate : 96.0 Kbps

Channel(s) : 2 channels

Sampling rate : 44.1 KHz

Stream size : 44.8 MiB (7%)

VOD-1.pngVOD-2.png

VOD-3.pngVOD-4.png

Share this post


Link to post

перекачай торрент... что-то затупило первый раз...

Share this post


Link to post
оффтоп: играете доту чтоль?
бывает... с друзьями по сети...

Share this post


Link to post

некоторые файлы малость тупят из-за большого размера...

Share this post


Link to post

Посмотрел 4 игры грамотный он комментатор *31

Share this post


Link to post

Эмоциональный комментатор )))

Коронная фраза "ну это борода" ахаха

Share this post


Link to post

Коронная фраза - "Это бл*дь не игра, это последний нах*й!"

Share this post


Link to post

млин... после этих комментариев друзья меня хотели закопать за новый жаргонизм, так как пару боев вообще не понимали о чем я...

Share this post


Link to post

Та ниписти!!! Чо я вилата чтоль не слышал, да и вован часто смотрит его. Один тока ванёк не в курсе...

Share this post


Link to post

Миха, ска... ты на день позже зарегался и тока вот спалился...

и ты вообще редко гамаешь...

Share this post


Link to post

Join the conversation

You can post now and register later. If you have an account, sign in now to post with your account.

Guest
Reply to this topic...

×   Pasted as rich text.   Paste as plain text instead

  Only 75 emoji are allowed.

×   Your link has been automatically embedded.   Display as a link instead

×   Your previous content has been restored.   Clear editor

×   You cannot paste images directly. Upload or insert images from URL.

Sign in to follow this  

  • Recently Browsing   0 members

    No registered users viewing this page.

×
×
  • Create New...