Jump to content

Search the Community

Showing results for tags 'соединённых штатов'.



More search options

  • Search By Tags

    Type tags separated by commas.
  • Search By Author

Content Type


Forums

  • All about this Forum
    • Forum news
    • Support forum
  • Small Talk
    • News
    • Offtop
    • Humor
    • Entertainment
    • Help Forum
    • Forum games
  • Culture
    • Movie Forum
    • Music Forum
    • Books, Science and Art
  • Society
    • Finance and business
    • Social Forum
    • Health
    • Woman's Forum
    • Education
    • Household Forum
    • Political and historical forum
  • Interests and Hobbies
    • IT Forum
    • Game Forum
    • Sport and tourism
    • Hunting and fishing
    • Animal Forum
    • Automotive Forum
  • Market
    • Барахолка
    • Автобарахолка
    • Недвижимость
    • Работа
    • Реклама, услуги
    • Бюро находок
  • Archive
    • Forum archive
  • Клуб "Веселый модератор"'s Темы

Blogs

There are no results to display.

There are no results to display.

Calendars

  • Forum events
  • Cultural events in Ulan-Ude
  • Commercial events
  • Клуб "Веселый модератор"'s События

Find results in...

Find results that contain...


Date Created

  • Start

    End


Last Updated

  • Start

    End


Filter by number of...

Joined

  • Start

    End


Group


ВКонтакте


Facebook


Twitter


Telegram


Skype


ICQ


Jabber


Website


Phone


From


Interests

Found 1 result

  1. Не рассказанная история Соединённых Штатов.(Русский перевод) / The Untold History of the United States. Год выпуска: 2012 Страна: США Жанр: Документальный исторический телесериал Продолжительность: 00:58:35 Перевод: Любительский (двухголосый закадровый) Русские субтитры: нет Режиссер: Оливер Стоун Описание: Режиссер Оливер Стоун («Александр», «Взвод», «Рожденный четвертого июля») предлагает вниманию публики свой документальный фильм «Нерассказанная история Соединенных Штатов» (The Untold History of the United States), который бросает вызов традиционным взглядам на американскую историю. Десятисерийный проект Стоуна поднимает завесу над темными сторонами существования Америки в свете их значения для возвеличивания или же принижения американской империи. Понятие американской исключительности, истоки которой идут еще с проповеди 1630 года, прочитанной Джоном Винтропом на борту «Арабеллы», одного из первых кораблей с переселенцами, прочно завладело умами американцев. Большинство при этом никогда не признают, что у США есть имперские замашки. Однако история говорит о другом. Атомные бомбежки Хиросимы и Нагасаки, главная роль в развязывании холодной войны, финансирование исламских фундаменталистов ради борьбы с СССР и их союзниками, что в конечном итоге обернулось против самих же США, нарушение президентами США Конституции своей страны – эти и многие другие примеры, о которых идет речь в фильме, неуклонно свидетельствуют о том, что исторические факты часто толкуются так, как это выгодно американским политикам. Есть ли у Америки возможность измениться? Доп. информация: Первая серия - Вторая мировая война Качество: HDTV 720p Формат: AVI Видеокодек: XviD Аудиокодек: MP3 Видео: DivX, 1280х720, 16:9, 3000 Кбит/сек, 24,000 кадров/сек Аудио: MP3, 48,0 КГц, 2 канала Смотреть он-лайн: [spoiler=Chapter 1: World War II]http://rutube.ru/play/embed/7324394Chapter 2:Roosevelt, Truman & Wallace]http://rutube.ru/play/embed/7339325Chapter 3: The Bomb]http://rutube.ru/play/embed/7350390Chapter 4: The Cold War: 1945–1950]http://rutube.ru/play/embed/7370142Chapter 5: The 50s Eisenhower, the Bomb & the Third World.]http://rutube.ru/play/embed/7380731Chapter 6: JFK: To the Brink]http://rutube.ru/play/embed/7397675Chapter 7: Johnson, Nixon & Vietnam: Reversal of Fortune]http://rutube.ru/play/embed/7408419Chapter 8: Reagan, Gorbachev & Third World: Revival of Fortune]http://rutube.ru/play/embed/7508094Chapter 9: Bush & Clinton: Squandered Peace - New World Order]http://rutube.ru/play/embed/7508141Chapter 10: Bush & Obama: Age of Terror]http://rutube.ru/play/embed/7508318 Season 1 Chapter 1: World War II Chapter 2: Roosevelt, Truman & Wallace Chapter 3: The Bomb Chapter 4: The Cold War: 1945–1950 Chapter 5: The 50s Eisenhower, the Bomb & the Third World. Chapter 6: JFK: To the Brink Chapter 7: Johnson, Nixon & Vietnam: Reversal of Fortune Chapter 8: Reagan, Gorbachev & Third World: Revival of Fortune Chapter 9: Bush & Clinton: Squandered Peace - New World Order Chapter 10: Bush & Obama: Age of Terror Общее Полное имя : Нерассказанная история Соединённых Штатов_1.avi Формат : AVI Формат/Информация : Audio Video Interleave Размер файла : 1,36 Гбайт Продолжительность : 58 м. Общий поток : 3324 Кбит/сек Видео Идентификатор : 0 Формат : MPEG-4 Visual Профиль формата : Simple@L0 Параметр BVOP формата : Нет Параметр QPel формата : Нет Параметр GMC формата : Без точки перехода Параметр матрицы формата : Default (H.263) Идентификатор кодека : XVID Идентификатор кодека/Подсказка : XviD Продолжительность : 58 м. Битрейт : 3000 Кбит/сек Ширина : 1280 пикселей Высота : 720 пикселей Соотношение сторон : 16:9 Частота кадров : 24,000 кадра/сек Цветовое пространство : YUV Субдискретизация насыщенности : 4:2:0 Битовая глубина : 8 бит Тип развёртки : Прогрессивная Метод сжатия : С потерями Бит/(Пиксели*Кадры) : 0.136 Размер потока : 1,23 Гбайт (90%) Библиотека кодирования : XviD 1.2.1 (UTC 2008-12-04) Аудио Идентификатор : 1 Формат : MPEG Audio Версия формата : Version 1 Профиль формата : Layer 3 Идентификатор кодека : 55 Идентификатор кодека/Подсказка : MP3 Продолжительность : 58 м. Вид битрейта : Постоянный Битрейт : 320 Кбит/сек Каналы : 2 канала Частота : 48,0 КГц Метод сжатия : С потерями Размер потока : 134 Мбайт (10%) Выравнивание : Разделение по промежуткам Продолжительность промежутка : 500 мс. (12,00 видеокадров) Время предзагрузки промежутка : 750 мс. Собственное мнение топикстартера: Хорошо снято, Оливер сериал будет заливаться постепенно теперь с озвучкой от 1 канала. [spoiler= [spoiler= [spoiler= [spoiler= [spoiler= [spoiler= [spoiler= [spoiler= [spoiler=
×