Jump to content
Sign in to follow this  
rafex

[Онлайн] Не рассказанная история Соединённых Штатов. / The Untold History of the United States.

Recommended Posts

Не рассказанная история Соединённых Штатов.(Русский перевод) / The Untold History of the United States.

34c60cb3d77aa6fddd8ec723e5a4f6d9.jpg

Год выпуска: 2012
Страна: США
Жанр: Документальный исторический телесериал
Продолжительность: 00:58:35
Перевод: Любительский (двухголосый закадровый)
Русские субтитры: нет
 
Режиссер: Оливер Стоун
 
Описание: Режиссер Оливер Стоун («Александр», «Взвод», «Рожденный четвертого июля») предлагает вниманию публики свой документальный фильм «Нерассказанная история Соединенных Штатов» (The Untold History of the United States), который бросает вызов традиционным взглядам на американскую историю.
 
Десятисерийный проект Стоуна поднимает завесу над темными сторонами существования Америки в свете их значения для возвеличивания или же принижения американской империи.
 
Понятие американской исключительности, истоки которой идут еще с проповеди 1630 года, прочитанной Джоном Винтропом на борту «Арабеллы», одного из первых кораблей с переселенцами, прочно завладело умами американцев. Большинство при этом никогда не признают, что у США есть имперские замашки. Однако история говорит о другом.
 
Атомные бомбежки Хиросимы и Нагасаки, главная роль в развязывании холодной войны, финансирование исламских фундаменталистов ради борьбы с СССР и их союзниками, что в конечном итоге обернулось против самих же США, нарушение президентами США Конституции своей страны – эти и многие другие примеры, о которых идет речь в фильме, неуклонно свидетельствуют о том, что исторические факты часто толкуются так, как это выгодно американским политикам. Есть ли у Америки возможность измениться?
 
Доп. информация: Первая серия - Вторая мировая война
 
Качество: HDTV 720p
Формат: AVI
Видеокодек: XviD
Аудиокодек: MP3
Видео: DivX, 1280х720, 16:9, 3000 Кбит/сек, 24,000 кадров/сек
Аудио: MP3, 48,0 КГц, 2 канала


 
Смотреть он-лайн:
[spoiler=Chapter 1: World War II]http://rutube.ru/play/embed/7324394Chapter 2:Roosevelt, Truman & Wallace]http://rutube.ru/play/embed/7339325Chapter 3: The Bomb]http://rutube.ru/play/embed/7350390Chapter 4: The Cold War: 1945–1950]http://rutube.ru/play/embed/7370142Chapter 5: The 50s Eisenhower, the Bomb & the Third World.]http://rutube.ru/play/embed/7380731Chapter 6: JFK: To the Brink]http://rutube.ru/play/embed/7397675Chapter 7: Johnson, Nixon & Vietnam: Reversal of Fortune]http://rutube.ru/play/embed/7408419Chapter 8: Reagan, Gorbachev & Third World: Revival of Fortune]http://rutube.ru/play/embed/7508094Chapter 9: Bush & Clinton: Squandered Peace - New World Order]http://rutube.ru/play/embed/7508141Chapter 10: Bush & Obama: Age of Terror]http://rutube.ru/play/embed/7508318


Season 1
Chapter 1: World War II
Chapter 2: Roosevelt, Truman & Wallace
Chapter 3: The Bomb
Chapter 4: The Cold War: 1945–1950
Chapter 5: The 50s Eisenhower, the Bomb & the Third World.
Chapter 6: JFK: To the Brink
Chapter 7: Johnson, Nixon & Vietnam: Reversal of Fortune
Chapter 8: Reagan, Gorbachev & Third World: Revival of Fortune
Chapter 9: Bush & Clinton: Squandered Peace - New World Order
Chapter 10: Bush & Obama: Age of Terror

Общее
Полное имя : Нерассказанная история Соединённых Штатов_1.avi
Формат : AVI
Формат/Информация : Audio Video Interleave
Размер файла : 1,36 Гбайт
Продолжительность : 58 м.
Общий поток : 3324 Кбит/сек
 
Видео
Идентификатор : 0
Формат : MPEG-4 Visual
Профиль формата : Simple@L0
Параметр BVOP формата : Нет
Параметр QPel формата : Нет
Параметр GMC формата : Без точки перехода
Параметр матрицы формата : Default (H.263)
Идентификатор кодека : XVID
Идентификатор кодека/Подсказка : XviD
Продолжительность : 58 м.
Битрейт : 3000 Кбит/сек
Ширина : 1280 пикселей
Высота : 720 пикселей
Соотношение сторон : 16:9
Частота кадров : 24,000 кадра/сек
Цветовое пространство : YUV
Субдискретизация насыщенности : 4:2:0
Битовая глубина : 8 бит
Тип развёртки : Прогрессивная
Метод сжатия : С потерями
Бит/(Пиксели*Кадры) : 0.136
Размер потока : 1,23 Гбайт (90%)
Библиотека кодирования : XviD 1.2.1 (UTC 2008-12-04)
 
Аудио
Идентификатор : 1
Формат : MPEG Audio
Версия формата : Version 1
Профиль формата : Layer 3
Идентификатор кодека : 55
Идентификатор кодека/Подсказка : MP3
Продолжительность : 58 м.
Вид битрейта : Постоянный
Битрейт : 320 Кбит/сек
Каналы : 2 канала
Частота : 48,0 КГц
Метод сжатия : С потерями
Размер потока : 134 Мбайт (10%)
Выравнивание : Разделение по промежуткам
Продолжительность промежутка : 500 мс. (12,00 видеокадров)
Время предзагрузки промежутка : 750 мс.

dd740cf9af7591f3b3ce9306bbeac87e.jpg
8d443211f0a389a4f5ab580c7b99c23a.jpg
bcb0a164ca7e17ae47ed08d6a2d5289d.jpg
3b79918ec1fd70548fb60e26dc80a300.jpg960fcd381652eeb4aa6a5262bbdc8da8.jpg514003e5807095798326e7714cf39ac6.jpg

 
Собственное мнение топикстартера: 
Хорошо снято, Оливер  :thumbs:
 сериал будет заливаться постепенно теперь с озвучкой от 1 канала. ;)

[spoiler=

[spoiler=

[spoiler=

[spoiler=

[spoiler=

[spoiler=

[spoiler=

[spoiler=

[spoiler=

Edited by rafex
  • Like 6

Share this post


Link to post
Share on other sites

наконец-то

Edited by rafex

Share this post


Link to post
Share on other sites

Залил вторую серию уже с озвучкой от 1 канала, приятного просмотра  :)

Edited by rafex
  • Like 1

Share this post


Link to post
Share on other sites

залил 3 серию

  • Like 1

Share this post


Link to post
Share on other sites

добавлена 4 серия

Share this post


Link to post
Share on other sites

Добавлена 5 серия

Share this post


Link to post
Share on other sites

Добавлена 6 серия

Share this post


Link to post
Share on other sites

добалена 7 серия

Share this post


Link to post
Share on other sites

где можно найти 8 9 10 серию, с любительское озвучкой ?

Share this post


Link to post
Share on other sites

где можно найти 8 9 10 серию, с любительское озвучкой ?

 

с любительской озвучкой нет, есть только с субтитрами но тоже не айс.

А в профессиональной только так.

Share this post


Link to post
Share on other sites

Добавлены последние 3 серии: 8, 9 и 10 серия.

Оливер Стоун о продолжении сериала не объявлял.

 

Приятного просмотра!  ;)

Share this post


Link to post
Share on other sites

Create an account or sign in to comment

You need to be a member in order to leave a comment

Create an account

Sign up for a new account in our community. It's easy!

Register a new account

Sign in

Already have an account? Sign in here.

Sign In Now
Sign in to follow this  

  • Similar Content

    • By spqr1945
      Рекомендую мини сериал "Чернобыль". Сейчас идёт по НВО, довольно тонко и детально воссоздано. 
    • By dementor
      Правила игры:

      1. Право на загадку имеет только тот человек, который отгадал предыдущую, после подтверждения от автора предыдущей загадки (исключение, если участник полностью уверен в правильности ответа)
      2. Если человек, отгадавший загадку, не загадывает свою на протяжении 12 часов после подтверждения правильности ответа, то загадывать имеет право любой желающий.
      3.Нужно отгадать кадр по сериалу.




  • Recently Browsing   0 members

    No registered users viewing this page.

×